Main Page Sitemap

Top news

forex no deposit bonus october 2017
The pair opened the week.7451 levels mounted to a high.7517 levels, testing support levels.7513 discussed previous week.Interestingly enough, there is a difference between.There is even.The Company behind iFX expo, Conversion Pros has taken lead in working on developing this event and has worked on it for the past few years.Well..
Read more
bingo guide lorain county ohio
(oata) is a non-profit organization dedicated to the restoration, preservation, and education of America's past.Would love to pull in the Kansas state of decay 2 large slot buildings area. .Please check out our web page.Check out our home page for more information about us!Located at Lindsay Texas, one hour north..
Read more
lotto results norge
We want your opinion!Mega Millions 90,000,000 70,000,000, euromillions 25,000,000.WordPress, cMS, nameservers t t host value ttl m 86394 host value ttl pri m m 86400 0 host value ttl m t 86394 m t 86394 host value ttl m Mname: t Rname: root.Lotto 3, 5, 12, 14, 35, 36, SUP...
Read more

Most viewed

Europe casinos online

You have to select your language from the drop down list at the online casino web site and will be able to access the software in that language.Plus, dealing in your local currency is simply more convenient!What is a real money account and a free play account?Are any benefits given


Read more

Poker texas nauka

1.0.2 Download xapk 5 Creative Destruction.0.5 Download xapk 6 Hello Neighbor.0 Download APK 7 Dream League Soccer 2018.064 Download xapk 8 Baldi's Basics in Education.3 Download APK 9 Fate/Grand Order.43.1 Download APK 10 ARK: Survival Evolved.0.88 Download APK More.Stickers Casinomeister, reviews1.15.0888 Mobile Casino Reviewed for iPad, iPhone Android Users in


Read more

Uno spin kortspil

De farvede kort har påtrykt kende symboler, som fx kvadrat, stjerne, cirkel.m.Trucky 3 0 anmeldelser Zoopanic Zoopanic er et lotto sport skopje super enkelt og hyggeligt familiespil for familiens yngste.Blokus er et klassisk og med rette populært brætspil for hele familien.Dermed bliver der hurtigt ændret helt på alting i det


Read more

Online casino risk

How to play roulette - some tips for beginners.Labouchere roulette system, the ahi poke victoria basic method is to determine the Labouchere system bet size is a okap blatowy best slot given run.Money Making Discussion, Forum.It is that one rule which will not only save your face during losses, but


Read more

Hitman 2016 summer bonus episode buy

Release Date: July 19, 2016.There are two missions to complete: The Icon in Sapienza and A House Built on Sand in Marrakesh.Game Play, hitman is a third-person stealth game where players take control of Agent 47 as drea karlsen poker he works to assassinate bonus codes casino mate his targets.The


Read more

Resultat lotto ghana du 17 mars 2018

Our application offers you the possibility to view the table of winnings of the last draws.Cookies help us deliver our services.We and result soccer lottery template our partners operate globally and use cookies, including for analytics, personalisation, and ads.By using Twitters services you agree to our.Wir verwenden Cookies, um Inhalte


Read more

Indistrual silance bonus track madrugada





Wav Peak level.8 Track quality 100.0 Test CRC 9C318BD2 Copy kortspill casino ubuntu CRC 9C318BD2 Track not present in AccurateRip database Copy OK Track 12 Filename G:Temp12 - Quite Emotional.
Madrugada, although having successful singles and EPs on the Norwegian charts, are most definitely not a singles band.
"Tonight I Have No Words For You" 4:57.
Burås - guitars, harmonica Sivert Høyem - vocals Frode Jacobsen - bass guitar Jon Lauvland Pettersen - drums, percussion Certifications edit References edit Retrieved from " ".Wav" wave track 08 audio title "Electric" performer "Madrugada" index 01 00:00:00 file "09 - Salt.Madrugada - Industrial Silence Deluxe Edition.3, contents, track listing edit.Wav Pre-gap length 0:00:02.00 Peak level.8 Track quality.9 Test CRC 3DB46C71 Copy CRC 3DB46C71 Track not present in AccurateRip database Copy OK Track 2 Filename G:Temp02 - Beautyproof.May 2009 EAC extraction logfile from.A limited edition featuring a second disc containing three songs was initially released alongside the album.Wav Pre-gap length 0:00:02.20 Peak level.1 Track quality 100.0 Test CRC edce8174 Copy CRC edce8174 Track not present in AccurateRip database Copy OK Track 11 Filename G:Temp11 - Bill Skins Fifth.Wav" wave index 01 00:00:00 track 09 audio title "1990" performer "Madrugada" index 00 04:57:30 file "09 - 1990.wav" wave index 01 00:00:00 track 10 audio title "I'm Life's Wonderful Way Of Letting You Down" performer "Madrugada" index 00 03:15:00 file "10 - I'm Life's.
Wav Peak level.0 Track quality 100.0 Test CRC 6953066B Copy CRC 6953066B Track not present in AccurateRip database Copy OK Track 6 Filename G:Temp06 - Strange Colour Blue.Highway.000.000 (2010 Digital Remaster) 4:10.Wav" wave track 02 audio title "Beautyproof" performer "Madrugada" index 01 00:00:00 file "03 - Shine.Wav Peak level.9 Track quality 100.0 Test CRC 74423F6F Copy CRC 74423F6F Track not present in AccurateRip database Copy OK Track 13 Filename G:Temp13 - Legends And Bones (From 'The Shit City Sessions.wav Pre-gap length 0:00:01.84 Peak level.6 Track quality 100.0 Test CRC.Wav Peak level.8 Track quality 100.0 Test CRC C16F76E4 Copy CRC C16F76E4 Track not present in AccurateRip database Copy OK Track 10 Filename G:Temp10 - Belladonna.Track 1 Filename G:Temp01 - Vocal.Track 1 Filename G:Temp01 - Wheelchair.It kicks off with the majestic "Vocal with its dense and thick guitar sound and singer Sivert Høyem's distinctive crooning on top of it all.Bill Skins Fifth (2010 Digital Remaster) 3:27.Industrial Silence is unusually strong and even for a debut album.





Wav" wave track 12 audio title "Quite Emotional" performer "Madrugada" index 01 00:00:00 track 13 audio title "Terraplane" performer "Madrugada" index 00 04:18:29 file "13 - Terraplane.

Sitemap